Scam 1992 - The Harshad Mehta Story - Season 01 S01 Hindi DS4K (1...

  • Category TV
  • Type HEVC/x265
  • Language Hindi
  • Total size 8.4 GB
  • Uploaded By Musafirboy
  • Downloads 132
  • Last checked 45 minutes ago
  • Date uploaded 1 week ago
  • Seeders 13
  • Leechers 12

Infohash : 04E00563FF7368FD861F9367610155ECCF12594D





Scam 1992 - The Harshad Mehta Story | S01 | DS4K

📀 1080p WEBRip | HEVC 10Bit | DDP ATMOS 5.1 | ESub 📀

🔊 Original Audio: Hindi










Media Information


Code:

General
Unique ID : 19631230891614667556967394799085345111 (0xEC4D66925EFBD87C2E13B63731AD957)
Complete name : Scam.1992.The.Harshad.Mehta.Story.S01E01.Hindi.1080p.DS4K.10bit.DDP.Atmos.5.1.HEVC-[Musafirboy].mkv
Format : Matroska
Format version : Version 4
File size : 1.20 GiB
Duration : 49 min 42 s
Overall bit rate : 3469 kb/s
Movie name : Scam.1992.The.Harshad.Mehta.Story.S01E01.Hindi.1080p.DS4K.10bit.DDP.Atmos.5.1.HEVC-[Musafirboy]
Encoded date : UTC 2023-02-12 14:28:28
Writing application : [mboy3ncode]

Video
Format : HEVC
Format/Info : High Efficiency Video Coding
Format profile : Main [email protected]@Main
Codec ID : V_MPEGH/ISO/HEVC
Duration : 49 min 42 s
Bit rate : 3019 kb/s
Width : 1920 pixels
Height : 960 pixels
Display aspect ratio : 2.000
Frame rate mode : Constant
Frame rate : 25.000 FPS
Color space : YUV
Chroma subsampling : 4:2:0
Bit depth : 10 bits
Bits/(Pixel*Frame) : 0.066
Stream size : 1.05 GiB (87%)
Default : Yes
Forced : No
Color range : Full
Color primaries : BT.709
Transfer characteristics : BT.709
Matrix coefficients : BT.709

Audio
Format : E-AC-3 JOC
Format/Info : Enhanced AC-3 with Joint Object Coding
Commercial name : Dolby Digital Plus with Dolby Atmos
Codec ID : A_EAC3
Duration : 49 min 42 s
Bit rate mode : Constant
Bit rate : 448 kb/s
Channel(s) : 6 channels
Channel layout : L R C LFE Ls Rs
Sampling rate : 48.0 kHz
Frame rate : 31.250 FPS (1536 SPF)
Compression mode : Lossy
Stream size : 159 MiB (13%)
Language : Hindi
Service kind : Complete Main
Default : Yes
Forced : No
Complexity index : 16
Number of dynamic objects : 15
Bed channel count : 1 channel
Bed channel configuration : LFE

Subtitle
Format : UTF-8
Codec ID : S_TEXT/UTF8
Codec ID/Info : UTF-8 Plain Text
Duration : 48 min 45 s
Bit rate : 87 b/s
Frame rate : 0.263 FPS
Count of elements : 770
Stream size : 31.1 KiB (0%)
Language : English
Default : Yes
Forced : No


Source Information


Code:

2160p SONYLIV WEB-DL





If you are financially able, please consider making a donation

bitcoin address: 3MHSQJWzztF6gv97qzqeoZSadPZ2GziMSX


Files:

Scam.1992.The.Harshad.Mehta.Story.S01.Hindi.1080p.DS4K.10bit.DDP.Atmos.5.1.HEVC-[Musafirboy]
  • Encoded by Musafirboy.txt (0.4 KB)
  • MusafirBox Plex Streaming.url (0.1 KB)
  • Scam.1992.The.Harshad.Mehta.Story.S01E01.Hindi.1080p.DS4K.10bit.DDP.Atmos.5.1.HEVC-[Musafirboy].mkv (1.2 GB)
  • Scam.1992.The.Harshad.Mehta.Story.S01E02.Hindi.1080p.DS4K.10bit.DDP.Atmos.5.1.HEVC-[Musafirboy].mkv (925.1 MB)
  • Scam.1992.The.Harshad.Mehta.Story.S01E03.Hindi.1080p.DS4K.10bit.DDP.Atmos.5.1.HEVC-[Musafirboy].mkv (862.9 MB)
  • Scam.1992.The.Harshad.Mehta.Story.S01E04.Hindi.1080p.DS4K.10bit.DDP.Atmos.5.1.HEVC-[Musafirboy].mkv (813.2 MB)
  • Scam.1992.The.Harshad.Mehta.Story.S01E05.Hindi.1080p.DS4K.10bit.DDP.Atmos.5.1.HEVC-[Musafirboy].mkv (842.3 MB)
  • Scam.1992.The.Harshad.Mehta.Story.S01E06.Hindi.1080p.DS4K.10bit.DDP.Atmos.5.1.HEVC-[Musafirboy].mkv (797.0 MB)
  • Scam.1992.The.Harshad.Mehta.Story.S01E07.Hindi.1080p.DS4K.10bit.DDP.Atmos.5.1.HEVC-[Musafirboy].mkv (560.2 MB)
  • Scam.1992.The.Harshad.Mehta.Story.S01E08.Hindi.1080p.DS4K.10bit.DDP.Atmos.5.1.HEVC-[Musafirboy].mkv (855.6 MB)
  • Scam.1992.The.Harshad.Mehta.Story.S01E09.Hindi.1080p.DS4K.10bit.DDP.Atmos.5.1.HEVC-[Musafirboy].mkv (908.9 MB)
  • Scam.1992.The.Harshad.Mehta.Story.S01E10.Hindi.1080p.DS4K.10bit.DDP.Atmos.5.1.HEVC-[Musafirboy].mkv (849.1 MB)
  • Visit us for HEVC 10bit Contents.url (0.1 KB)

Comments

Code:

  • udp://tracker.coppersurfer.tk:6969/announce
  • udp://tracker.leechers-paradise.org:6969/announce
  • udp://tracker.opentrackr.org:1337/announce
  • udp://p4p.arenabg.com:1337/announce
  • https://tracker.nanoha.org:443/announce
  • https://tracker.lilithraws.cf:443/announce
  • https://tracker.iriseden.fr:443/announce
  • https://t1.tokhmi.xyz:443/announce
  • http://vps02.net.orel.ru:80/announce
  • http://googer.cc:1337/announce
  • https://tracker.nitrix.me:443/announce
  • https://mytracker.fly.dev:443/announce
  • http://tracker.bt4g.com:2095/announce
  • http://fxtt.ru:80/announce